Scandal Masterpiece Flac

Buy, preview and download over 30 million tracks in our store. al Film Theatre 1956/9. SCANDAL Masterpiece / Mabataki download. SCANDAL's 11th Anniversary Live - Storytellers: SCANDAL @ Billboard Live Osaka, Aug. Peccato perché possiedo anche i Flac e il suono li è meraviglioso (sono arrivati anche i file su Amazon Music remaster del 2001, ma che comunque è anni luce da quella su vinile che è una remaster del 2009). ) Download Jpop Song Single & Album Flac Mp3 AAC Free. pm - fast music search, direct links, download and listen mp3 music online for. Released 12 February 2020 on Colourful (catalog no. (добавить в избранное) 04:19. The Beatles catalogue was not remastered in 2018. Lord Byron's Poetical Works (Vol. Download Bibi songs, singles and albums on MP3. Genre : Rock Release Date : 2020 Format : Flac (tracks) Quality : Lossless Tracklist: 01. 4 - The Ultimate Disco Funk Collection (2006)\ Masterpiece Vol. 1 MiB: (Hi-Res) SCANDAL - SCANDAL SHOW (FLAC 24bit/96kHz). 27] (SCANDAL – マスターピース / まばたき) FLAC / Lossless / CD / Limited Edition A – 2019 62. SCANDAL – SPICE (Digital Single) XFLAG Theme Song (MP3 320KBps) July 22, 2020. The Lords Song 6. With all of these upgrades and extra content on top of an already rock-solid game, picking up Romancing SaGa 3 for many is a no brainer. ' "Masterpiece" is described as a positive rock tune about new beginnings and a hope for the future. 0 / 5 , 0 votes. The band scored a hit in the United States with the song " The Warrior ", which peaked at No. flac, size: 35,13. Unsere neue Verlinkungsfunktionalität erkennt diese juristischen Dokumente im Text und verlinkt direkt zu diesen Dokumenten. 2 (30th Anniversary)[MP3/RAR] Released: 2012 Genre: Pop, Rock Bitrate: MP3 320 KBPS Disc 1: 1. Hyper-Flesh Aedificium 4. Them Thats Got 2. Disc 1 01 Ophelia 02 Slippin' And Slidin' 03 Goin' Back To Memphis 04 Ain't No More Cane 05 Lookout Cleveland 06 Jemina Surrender > 07 Yazoo Street Scandal 08. 25] 아이유(IU) - IU 5th Album LILAC 00:09 4 음악 | Various Artists - 무법 변호사 OST 06:09 5 음악 | Rednex - Old Pop In An Oak (Euro Tracks) 외6곡,,, 06:09 6 음악 | Jose Gonzalez - How Low 03. 1 【2021年】動画ファイルサイズを軽くできるオンラインツール4選. MARK MULLIGAN / THE HERALD. 똑똑한 ai 번역기 파파고, 언어 장벽 없이 대화하는 세상을 꿈꿉니다. On March 27th (Wed. The work. FLAC Bob Dylan & The Band - The Basement Tapes [HIGHRESAUDIO HRA 24bits/192. 00 B/s: 741: 368. (Studio FLAC) HOWLIN' WOLF CHESS RECORDS OUTTAKES,DEMOS & ALTERNATE TAKES 1948 - 1968 RECORDED IN CHICAGO AND MEMPHIS PLUS CHICAGO 1972 L. 中古車情報(U-Car)ページです。安心・信頼のT-Valueハイブリッド中心に全国保証のアフターサービスも万全!. Mediaplus Le Quotidien. Taco Bell 6. マスターピース/まばたき SCANDAL/a> 番号:VICL-37467. Scandal First Live: Best Scandal 2009: 5 5 11,107 Scandal Anime — — — 2011 Everybody Say Yeah!: Temptation Box Tour 2010: Zepp Tokyo: 5 8 11,175 Video Action: 2 5 14,067 2012 Japan Title Match Live 2012: Scandal vs Budokan: 2 8 15,710 2013 Scandal Osaka-Jo Hall 2013: Wonderful Tonight: 4 10 15,130 2015 Scandal Arena Live 2014: Festival: 2. Aspiring writers get up early in the morning to get a few pages of their putative masterpiece done before the kids wake for school. Intro (The) 2. 41 US), and "Beat of a Heart" (1985 - No. The Flammable Man 5. a aa aaa aaaa aaacn aaah aaai aaas aab aabb aac aacc aace aachen aacom aacs aacsb aad aadvantage aae aaf aafp aag aah aai aaj aal aalborg aalib aaliyah aall aalto aam. Everything about Blu-ray Disc. Tracker Wide Statistics Seeds/Peers: 2,302/791 (1:2. 初音ミク - 幽霊東京 瀬名航 (C94) 瀬名航 - せなとうた [ototoy/FLAC] 稲葉曇 (VM43) 稲葉曇 feat. Name Name 4. Masterpiece. Title: SCANDAL - Masterpiece Lyrics Album: Masterpiece / Mabataki - Single Release date: March 27, 2019 Composer: Lyricist: Arranged by: Performed by: SCANDAL hajimari no aizu wa itsu de mo totsuzen narihibiite hashiridasu kodou mou tomerarenai wa tatoeba iji waru na dare ka ni warawareta to shite mo donkan de junshin na furi shite idomitai. ku abah emak abang kumis abang sayang house music abang sayang abatasa (koplo) ach yang bener acong jadi amir acuh tak acuh house music acuh tak acuh acuh tak acuh ada apa dengan cinta ada apa ini ada kamu ada suara ada cinta adakah kau setia aduhai aduhai aduhdu sayang ahh. Similar to how 95% of folk don't care about mp3 vs flac as an audio source. FLAC无损下载 (Masterpiece / Mabataki) SCANDAL. Saishuheiki. 25 2 영화 | [D즈니] [팔콘 앤 윈터 솔져] 시즌1 01화 1080p. NEON TOWN ESCAPE. Scandal - Kiss from the darkness. The Wishing Bear 5. A Yellow (stilizálva YELLOW) a Scandal japán pop-rock együttes hetedik stúdióalbuma, amely 2016. 2010年 ANIMAX MUSIX SPRING 2010. Scandal-Kiss_From_The_Darkness-JP-CDA-FLAC-2020-DARKAUDiO FLAC (tracks) 16 bit/ 44,1kHz | Time The album includes their first single from the label "Masterpiece", a powerful, upbeat blast of. Sauvage Eau de Parfum was launched in 2018. Sauvage Eau de Parfum by Christian Dior is a Amber Fougere fragrance for men. City Song 2. Atlanta - I Wanna Dance 02. A面で恋をして [A Men de Koi wo shite] 2. 中古車情報(U-Car)ページです。安心・信頼のT-Valueハイブリッド中心に全国保証のアフターサービスも万全!. 35,553,367. 彼女はデリケート [Kanojo wa Delicate] 3. The first rap masterpiece of the century was an epic that covered all of hip-hop’s bases – horndog G-funk on We Luv Deez Hoez and I’ll Call B4 I Cum, raunchy boom-bap on Xplosion, rap-rock. Saishuheiki. The work. (Studio FLAC) HOWLIN' WOLF CHESS RECORDS OUTTAKES,DEMOS & ALTERNATE TAKES 1948 - 1968 RECORDED IN CHICAGO AND MEMPHIS PLUS CHICAGO 1972 L. Download SCANDAL - Masterpiece. Amazon Music Stream millions of songs: Amazon Advertising Find, attract, and. - Traveler download zip rar mp3 aac m4a flac Super Junior K. CRUSH by That Kid, released 31 March 2020 1. The first release from SCANDAL under their own label her. Waste Ranger 5. 25 2 음악 | 벤 앨범모음 03. The Nation is the oldest continuously published weekly magazine in the United States, covering progressive political and cultural news, opinion, and analysis. I wanted to made sure i had the complete discography the day Kiss from the darkness launche SCANDAL Complete Discography (2006-2020) [FLAC]. Tracker Wide Statistics Seeds/Peers: 2,302/791 (1:2. You Won't Get What You Want by Daughters, released 26 October 2018 1. Flavio Crispo, Act I: Sinfonia. (FM broadcast FLAC) Bread and Roses Festival. Tolerance - Machinery 03. Scandal - Kiss From The Darkness. Waste Ranger 5. 6 is however Langgaard’s most avantgarde-like symphony, and is regarded today as a masterpiece of the Danish music of the inter-war years. Bye Bye C-Boy 4. 27] (SCANDAL – マスターピース / まばたき) FLAC / Lossless / CD / Limited Edition A – 2019 62. Casablanca - Scandal Eyes 04. movies and TV shows will likely be just the beginning of Plex’s ad-supported content, as the company plans on working with additional media partners to expand its catalog. Madonna - Masterpiece. SCANDAL - Masterpiece. 26 1 음악 | (EDM /Hip-Hop) LMFAO 정규앨범 03. 24 1 영화 | 소울 Soul. Put it Down 5. With all of these upgrades and extra content on top of an already rock-solid game, picking up Romancing SaGa 3 for many is a no brainer. Create a free forum : PHPBB3 You can create a free forum on Forumotion in seconds, without any technical knowledge and begin to discuss on your own forum instantly! The interface of the forum is intuitive, easy to use and customizable. Suivez l'évolution de l'épidémie de CoronaVirus / Covid19 dans le monde. 歌愛ユキ - アンチサイクロン Kanaria [201017] Kanaria - ヒトリユラリ(MARETU REMIX) [ototoy/FLAC] (VM45) Kanaria - KING. The 2015 digital compilation The Capitol Rarities: 1968-1977 is a nice, 33-track round-up of songs that were originally digitally released as bonus tracks on Capitol's acclaimed Band reissues from 2000 and 2001. Everyday, to make my day I will watch the last 2 episodes until it’s Wednesday again. The score is a masterpiece. I hope the writer will make another masterpiece. Duration: 4:19 File type: mp3. 72MB 1975/1975 - Donna Summer - Love To Love You Baby {Casablanca NBLP 7041} {16-44}/02. 28)[MP3+Flac] [Single] 下村陽子 × suis from ヨルシカ – ゆうちょPayオリジナルイメージソング #時をめくる指 (2020. The first rap masterpiece of the century was an epic that covered all of hip-hop’s bases – horndog G-funk on We Luv Deez Hoez and I’ll Call B4 I Cum, raunchy boom-bap on Xplosion, rap-rock. 0 GiB: 2016-09-06 14:15: 0: 0: 259: 1 SCANDAL Hello world. (M-00005)(070905)Rie fu - 5000 マイル. 27] (SCANDAL – マスターピース / まばたき) FLAC / Lossless / CD / Limited Edition A – 2019 62. 彼女はデリケート [Kanojo wa Delicate] 3. Scandal - Kiss from the darkness. WEB FLAC 24bit/96kHz SCANDAL - Masterpiece ⁄ Mabataki [24bit ⁄ 96kHz]. This is an update to my previous discography, which wasn't complete. 1 kHz (Tracks) Artist: Scandal Title: Kiss from the Darkness Released: 2020 Style: Rock RAR Size: 337 Mb Tracklist: 01. あなたはおそらくそれも好きでしょう : [TV-SHOW] SCANDAL『SEASONS』collaborated with NAKED (2020. 7 - The Ultimate Disco Funk Collection (2008)\ Masterpiece Vol 8 by. Pink Matter 6. Mata-Hari - Mata-Hari 08. SCANDAL – SPICE (Digital Single) XFLAG Theme Song (MP3 320KBps) July 22, 2020. Vikki Love) - Love Ride. A Hello World a Scandal japán pop-rock együttes hatodik stúdióalbuma, amely 2014. Brian And The Eden - Wishing You All The Best For. Feelings for Detroit Vol. The Coldest 8. SCANDAL Masterpiece. Продолжительность: 04:19. FlacMusicFinder. Character File Vol. SCANDAL (JP) - Masterpiece. Mirage - Talking Eyes 05. What's Going On is not only Marvin Gaye's masterpiece, it's the most important and passionate record to come out of soul music, delivered by one of its finest voices, a man finally free to speak his mind. ” It’s a song about fighting for agency on an album that is in many ways about volition and potential; how people can navigate difficulties and opportunities to create different paths. ) 2019 Victor Entertainment, Japan. [Album] SSSS. Bands a make Her Dance 8. One es una caja recopilatoria del músico estadounidense Bob Dylan, publicada por la compañía discográfica Columbia Records en noviembre de 2013. A Pop Masterpiece: For Evie Sands, Making Music Is Like Breathing OFF BEAT MAGAZINE SEPTEMBER 27, 2017 by: BRETT MILANO As any Ponderosa Stomp-goer knows, there are certain records that you need enlightened ears to appreciate. The Gold Shoes 2. 1,190 Followers, 292 Following, 11 Posts - See Instagram photos and videos from abdou now online (@abdoualittlebit). Mediaplus Le Quotidien. jdl_lagu 10 macam kamu 10 malaikat 14 malam 19 house music 30 nonstop house music 7251364 9 bulan 9 hari abadinya cinta. Amazon Music Stream millions of songs: Amazon Advertising Find, attract, and. When it came out in April we described it as a modern ambient masterpiece - that was before Brexit and Trump. SCANDAL Masterpiece / Mabataki download. 我永远不会忘记你 4. Kiss Me Thru The Phone 5. Northern Pike. Scandal (1) Scorpions (48) Casper And The Cookies' "Modern Silence" Is A Modern Masterpiece 11. Scandal Masterpiece Flac Photoshop Elements 2019 Torrent Miel Lapin Chel Brother 7820n Scanner Driver Armaholic Arma 3 Acer Es1-512 Series Drivers Windows 7 High School Dxd 3ds Rom Driver Para Huawei Y221-u03 Bmc Medical Education San Francisco Prop J 2008. Genres: Pop Rock, J-Pop. Yellow is the seventh studio album by Japanese rock band Scandal. The album includes their first single from the label "Masterpiece", a powerful, upbeat blast of Japanese pop-rock that has achieved over 1. 21 [MP4 1080p] Posted by mqs / Posted 6 months ago September 28, 2020 Scandal’s Livestream held on the 21st August 2020 at the Mozart Hall of Symphony Hills, in Katsushika, Tōkyō, to compensate with their cancelled/postponed 2020 World Tour. I wanted to made sure i had the complete discography the day Kiss from the darkness launche SCANDAL Complete Discography (2006-2020) [FLAC]. 352 : Lu Lu Says: March 25th, 2016 at 9:34 pm. Character File Vol. E infatti si vede proprio nella stampa di come si sia andati al "risparmio" nell'incisione. Take A Sneak Peak At The Movies Coming Out This Week (8/12) Best feel-good 80s movies to watch, straight from a Gen Xer; New Movie Releases This Weekend: March 26th – March 28th. What's Going On is not only Marvin Gaye's masterpiece, it's the most important and passionate record to come out of soul music, delivered by one of its finest voices, a man finally free to speak his mind. マンハッタンブリッヂにたたずんで [Manhattan …Read more ». Scandal-Kiss_From_The_Darkness-JP-CDA-FLAC-2020-DARKAUDiO FLAC (tracks) 16 bit/ 44,1kHz | Time The album includes their first single from the label "Masterpiece", a powerful, upbeat blast of. Yosier - Mi Tormento 09. Masterpiece 03. Music Video Director:DaishinSZK. Acknowledgements to Messrs. Unsere neue Verlinkungsfunktionalität erkennt diese juristischen Dokumente im Text und verlinkt direkt zu diesen Dokumenten. Find them all on JpopAsia. március 2-án jelent meg az Epic kiadásában. Northern Pike. zip #536: 3621x [ 55M] [Nipponsei] BLEACH Original Soundtrack I. Saishuheiki Kimi 05. Tonight flac • bitrate: min 931 Kbps / max 1175 Kbps Masterpiece 03. Download SCANDAL - Masterpiece. SCANDAL Masterpiece. Scandal at Seourte. Other hits were " Goodbye to You " (1982 - No. The Nation is the oldest continuously published weekly magazine in the United States, covering progressive political and cultural news, opinion, and analysis. A combination of Jamaican dancehall, American hip-hop, Caribbean rhythms and Spanish wit, reggaeton has, since its birth in the early 90s, shaken the world of pop music time and time again. Create a free forum : PHPBB3 You can create a free forum on Forumotion in seconds, without any technical knowledge and begin to discuss on your own forum instantly! The interface of the forum is intuitive, easy to use and customizable. (FM broadcast FLAC) Bread and Roses Festival. Masterpiece 03. Feelings for Detroit Vol. 24) (WEBRIP) [TV-Variety] ミュージックドラゴン – 2015. CRUSH by That Kid, released 31 March 2020 1. comСкачать SCANDAL - Masterpiece №170744446 - iPleer. 24/MP3/RAR). (Studio FLAC) HOWLIN' WOLF CHESS RECORDS OUTTAKES,DEMOS & ALTERNATE TAKES 1948 - 1968 RECORDED IN CHICAGO AND MEMPHIS PLUS CHICAGO 1972 L. Promenoch les spécialistes des éléments publicitaires basé à Paris vous propose un large choix de cadeaux d’affaire et d’objets publicitaires : cadeaux entreprises , coffret champagne personnalisé , panier gourmand personnalisable , chocolat publicitaires , coffrets cadeaux beauté publicitaires , parure stylos personnalisable. SCANDAL - Masterpiece. E infatti si vede proprio nella stampa di come si sia andati al "risparmio" nell'incisione. Duration: 4:19 File type: mp3. Gracias por esta gran Subida!!!! Seguire descargando todo lo que de scandal aparesca xD Arigatou!!!. Tolerance - Machinery 03. SCANDAL (JP) - Masterpiece. 2010年 ANIMAX MUSIX SPRING 2010. 54 GB: 2009-08-25 13:49 [LonE] Takahashi Mikako - Hayate the combat butler!! Character. Disc 1 01 Ophelia 02 Slippin' And Slidin' 03 Goin' Back To Memphis 04 Ain't No More Cane 05 Lookout Cleveland 06 Jemina Surrender > 07 Yazoo Street Scandal 08. Sometimes I’d rehearse a sequence with no idea of the context or any sense of how it would eventually appear. 73 MB: 1 0: 16 Июл 20: Bob Dylan & Joan Baez - Voices Of A Generation [2CD] (2013) MP3 : 324. A kiadvánnyal az együttes új irányt vett, a korábbiakkal ellentétben a lemezen szereplő legtöbb dalt teljesen ők szerezték, melyre azért került sor, mivel úgy érezték, hogy bizonyos korábbi, mások által szerzett számaik nem az ő. It now feels like the most prescient record of our times Sam Kidel’s debut for The Death of Rave is little short of a modern ambient masterpiece. flac" WAVE TRACK 01 AUDIO TITLE "The Prototype" PERFORMER "Celebrity Sex Scandal" FLAGS DCP INDEX 01 00:00:00 TRACK 02 AUDIO TITLE "Ballad Of Britney" PERFORMER "Celebrity Sex Scandal" FLAGS DCP INDEX 01 03:55:72 TRACK 03 AUDIO TITLE "Billy's Little Baby" PERFORMER "Celebrity Sex Scandal" FLAGS DCP INDEX. 25 2 영화 | [D즈니] [팔콘 앤 윈터 솔져] 시즌1 01화 1080p. The album includes their first single from the label "Masterpiece", a powerful, upbeat blast of Japanese pop-rock that has achieved over 1. Kenny Burrell’s guitaristry is well-documented in his years with Oscar Peterson and on his first dates as a leader on the Blue Note label, but God Bless the Child, his only date for CTI in 1971, is an under-heard masterpiece in his catalog. Quality: FLAC 16 bit / 44. 1 of) 'a new, revised and enlarged edition with illustrations' and bibliography, published 1898, a truly excellent critical edition by E. #scandalband #mamisasazaki #harunaono #rinasuzuki #tomomiogawa #masterpieceSCANDAL Masterpiece behind the scene#scandal #スキャンダル #sukyandaru #scandalband #sc. 93 MB: 0 1: 20 Июн 20: Bob Dylan - Rough And Rowdy Ways [24bit Hi-Res] (2020) FLAC : 1. Mediaplus Le Quotidien. One of the oldest and well known Russian mp3 music sites. WEB FLAC 24bit/96kHz SCANDAL - Masterpiece ⁄ Mabataki [24bit ⁄ 96kHz]. 24 1 영화 | 소울 Soul. 352 : Lu Lu Says: March 25th, 2016 at 9:34 pm. 27] (SCANDAL – マスターピース / まばたき) FLAC / Lossless / CD / Limited Edition A – 2019 62. 聴志動感(ちょうしどうかん) 「今だからこそ、心3(試み)る」 無観客中継による新型ライブイベント開催! スーパーチャットにて「投げ銭」の受付をいたします! 「いいね!」と思ったら是非ご支援ください! 1. Kenny Burrell’s guitaristry is well-documented in his years with Oscar Peterson and on his first dates as a leader on the Blue Note label, but God Bless the Child, his only date for CTI in 1971, is an under-heard masterpiece in his catalog. I wanted to made sure i had the complete discography the day Kiss from the darkness launche SCANDAL Complete Discography (2006-2020) [FLAC]. Long Road, No Turns 3. #scandalband #mamisasazaki #harunaono #rinasuzuki #tomomiogawa #masterpieceSCANDAL Masterpiece behind the scene#scandal #スキャンダル #sukyandaru #scandalband #sc. Продолжительность: 04:19. It first aired on ITV in the United Kingdom and Ireland on 26 September 2010 and on PBS in the United States on 9 January 2011 as part of the Masterpiece Classic anthology. hello ! i know i'm quite late, but i just registered on the website to tell you i've spent all this day to make a tab of Mami's part in Masterpiece ! i basically took the instrumental and isolated the right ear to make this tab as best as i could, by ear. One of the oldest and well known Russian mp3 music sites. 5 - The Ultimate Disco Funk Collection (2007)\ Masterpiece Vol. SCANDAL – Masterpiece / Mabataki (Single) March 27, 2019. Unsere neue Verlinkungsfunktionalität erkennt diese juristischen Dokumente im Text und verlinkt direkt zu diesen Dokumenten. december 3-án jelent meg az Epic Records Japan kiadásában. 6 is however Langgaard’s most avantgarde-like symphony, and is regarded today as a masterpiece of the Danish music of the inter-war years. Walleye Walleye, Yellow Perch Yellow Perch. Greek Theater. | 00-scandal-kiss_from_the_darkness-jp-cda-flac-2020-darkaudio-proof. Scandal Masterpiece Flac Share Tweet Google+ Pinterest LinkedIn Tumblr Email +. J download mp3, download scandal mp3, scandal download, scandal download mp3 Kiss from the darkness is the ninth. 41 US), and "Beat of a Heart" (1985 - No. 5 - The Ultimate Disco Funk Collection (2007)\ Masterpiece Vol. WEB FLAC 24bit/96kHz SCANDAL - Masterpiece ⁄ Mabataki [24bit ⁄ 96kHz]. This was right after his masterpiece album All Things Must Pass. 17 8 (People and ruliple chees) a1 relovorsips) Relovonsip p10 Pare t eter) p21 2 bexing ore Pare 4 (lupe choles) Pare 2. E infatti si vede proprio nella stampa di come si sia andati al "risparmio" nell'incisione. ВКонтакте – универсальное средство для общения и поиска друзей и одноклассников, которым ежедневно пользуются десятки миллионов человек. 6 % Extraction speed. Walleye Walleye, Yellow Perch Yellow Perch. Saishuheiki. 47 MB: 0: 0: 0. pm - fast music search, direct links, download and listen mp3 music online for. Scandal - Masterpiece. Feminenergy by TAIRRIE B, released 20 October 2020 1. 1 MiB: (Hi-Res) SCANDAL - SCANDAL SHOW (FLAC 24bit/96kHz). Words:RINA Music:MAMI Arrangement:Keita Kawaguchi. 28 0 강추 | 월등한 자료량 무료 다운로드. The Nation is the oldest continuously published weekly magazine in the United States, covering progressive political and cultural news, opinion, and analysis. ) 2019 Victor Entertainment, Japan. Vikki Love) - Love Ride. Acknowledgements to Messrs. Other hits were " Goodbye to You " (1982 - No. 2 - SCANDAL Nanka Buttobase (Instrumental). 7 - The Ultimate Disco Funk Collection (2008)\ Masterpiece Vol 8 by. Sweet Love 7. Quality: FLAC 16 bit / 44. Casablanca - Scandal Eyes 04. Latest single A. zip #534: 1642x [147M] [Nipponsei] BLEACH Original Soundtrack 3. Greek Theater. 2010年 ANIMAX MUSIX SPRING 2010. you Scandal porn galleries, daily updated lists FLAC techno downloads. Download SCANDAL Torrent for free, Direct Downloads via Magnet Link and FREE Movies Online to Watch Also available, Hash : F149AD4B9F8AFA7E55A4F07AA61AAA684D26EA0F. Hyper-Flesh Aedificium 4. Blu-ray reviews, releases, news, guides and forums covering Blu-ray movies, players, recorders, drives, media, software and much more. One at Discogs. Scandal, MainArtist - Rina, Lyricist - Mami, Composer - Victor Music Arts, Inc. Everyday, to make my day I will watch the last 2 episodes until it’s Wednesday again. flac, size: 28,61 MB. Kenny Burrell’s guitaristry is well-documented in his years with Oscar Peterson and on his first dates as a leader on the Blue Note label, but God Bless the Child, his only date for CTI in 1971, is an under-heard masterpiece in his catalog. SCANDAL-まばたき 歌曲下载. 24 1 영화 | 소울 Soul. SCANDAL - Masterpiece. SCANDAL released 13 albums, 34 singles, and 199 videos. | 05-scandal-laundry_laundry. Mirage - Talking Eyes 05. A Pop Masterpiece: For Evie Sands, Making Music Is Like Breathing OFF BEAT MAGAZINE SEPTEMBER 27, 2017 by: BRETT MILANO As any Ponderosa Stomp-goer knows, there are certain records that you need enlightened ears to appreciate. (FLAC_Log) (M-00006)(071024)ef - a tale of memories. Everything about Blu-ray Disc. 1 【2021年】動画ファイルサイズを軽くできるオンラインツール4選. Продолжительность: 04:19. 19 MB FLAC / Lossless / CD / Regular Edition – 2019 94. Terms of Service. SCANDAL マスターピース / まばたき無料発売日情報。 [single]完全無敵あいうえお - chuLa[FLAC + MP3] [album]LET'S MUSIC - Sexy Zone [album. 2 - SCANDAL Nanka Buttobase (Instrumental). Scandal masterpiece flac. Loyalty Illusion (R. Long Road, No Turns 3. The George Harrison masterpiece, ‘All Things Must Pass’, celebrates its 50th anniversary today, and to mark this very special occasion, you can listen to the brand new 2020 stereo mix of the album’s title track now - All Things Must Pass (2020 Mix). Scandal Masterpiece Flac Share Tweet Google+ Pinterest LinkedIn Tumblr Email +. Omg he makes my legs weak 😂 i didnt really fan him in the pass but now with those muscles and tan skin omg …. I'm looking for a Guitar Pro tab of Masterpiece thanks. Kenny Burrell’s guitaristry is well-documented in his years with Oscar Peterson and on his first dates as a leader on the Blue Note label, but God Bless the Child, his only date for CTI in 1971, is an under-heard masterpiece in his catalog. 6 is however Langgaard’s most avantgarde-like symphony, and is regarded today as a masterpiece of the Danish music of the inter-war years. Tonight 02. A great soundtrack goes beyond the songs. 6 - The Ultimate Disco Funk Collection (2008)\ Masterpiece Vol. Scandal 02- Masterpiece Álbum Kiss from the darkness Подробнее. Tracklist: CD1 01. Fontane's masterpiece, EFFI BRIEST (1895), is famous for its superb characterization and skillful portrayal of the milieu of his native Brandenburg, and was hailed by Thomas Mann as one of "the six most significant novels ever written. Roy C Discography ROY C - THE DISCOGRAPHY (Compiled by Heikki Suosalo. A面で恋をして [A Men de Koi wo shite] 2. Google Photos is the home for all your photos and videos, automatically organized and easy to share. 25 MB | +6. Tracker Wide Statistics Seeds/Peers: 2,302/791 (1:2. comСкачать SCANDAL - Masterpiece №170744446 - iPleer. With those expanded CDs fading into the history books, it's best for the non-LP cuts. Others state that Handel had wooed away the Dresden singers during a journey from Italy to London. Gracias por esta gran Subida!!!! Seguire descargando todo lo que de scandal aparesca xD Arigatou!!!. Neuropunk Boostergang by EXPANDER, released 21 August 2020 1. jpg, size: 1,31 MB. 米津玄師 (Kenshi Yonezu) – STRAY SHEEP [FLAC 24bit + MP3 320 / WEB] August 5, 2020 4,453 TVアニメ『怪物事変』オリジナルサウンドトラック (2021. 21 [MP4 1080p] Posted by mqs / Posted 6 months ago September 28, 2020 Scandal’s Livestream held on the 21st August 2020 at the Mozart Hall of Symphony Hills, in Katsushika, Tōkyō, to compensate with their cancelled/postponed 2020 World Tour. 1 Scandal - Masterpiece: 29. Bye Bye C-Boy 4. Saishuheiki. Pink Matter 6. I wanted to made sure i had the complete discography the day Kiss from the darkness launche SCANDAL Complete Discography (2006-2020) [FLAC]. Hardcore 3. SCANDAL マスターピース / まばたき無料発売日情報。 [single]完全無敵あいうえお - chuLa[FLAC + MP3] [album]LET'S MUSIC - Sexy Zone [album. When it came out in April we described it as a modern ambient masterpiece - that was before Brexit and Trump. INFO: Source: WEBRip Video compression mode: [MKV,1080p][H. 7 Minutes In Heaven (feat. [Album] SCANDAL – Kiss From The Darkness [Flac] By yukorin Posted on 16/08/2020 Kiss from the darkness is the ninth album released by SCANDAL, and their first album release under their own private label her. Long Road, No Turns 3. Scandal - Masterpiece. Cas confirmés, mortalité, guérisons, toutes les statistiques. The Complete Album Collection Vol. VA Pure Electronic 80s (4CD) (2014) [FLAC] torrent download, InfoHash 105E3A9EEAA72A886235C04CB0BCFFD6F7630C27. Duration: 4:19 File type: mp3. Tonight 02. 25 MB | +6. 0 GiB: 2016-09-06 14:15: 0: 0: 259: 1 SCANDAL Hello world. So so love this drama. Complete your Bob Dylan collection. The band scored a hit in the United States with the song " The Warrior ", which peaked at No. (добавить в избранное) 04:19. Quality: FLAC 16 bit / 44. GRIDMAN ORIGINAL SOUNDTRACK [FLAC 24bit + MP3 320 / WEB] [Single] 斉藤朱夏 (Shuka Saito) – セカイノハテ [FLAC 24bit + MP3 320 / WEB] [Single] ARCANA PROJECT – 夢で世界を変えるなら [FLAC 24bit + MP3 320 / WEB] [Album] Devil May Cry 5 Special Edition Vergil’s Rebirth Sound Selection [FLAC + MP3 320 / WEB]. SCANDAL - Masterpiece. Bath Time by Maija Sofia, released 22 November 2019 1. Marvin Gaye’s 1971 masterpiece celebrates another birthday and gets the Super Deluxe treatment. Name Name 4. Bands a make Her Dance 8. Cotton Magick by Black Taffy, released 01 June 2012 1. Symphony No. ) 2019 Victor Entertainment, Japan. Artist & Title: SCANDAL - Masterpiece / Mabataki Artist & Title (Org. TEE – Masterpiece -The World Best Covers- Released: 2017 Genre: R&B Bitrate: MP3 320 KBPS Tracklist: 1 See You Again 2 Sugar -My Sweet Baby- 3 Despacito 4 Stay With Me – Sobani Itehoshii 5 Aio Mitsuketa -Thinking Out Loud- 6 Wonderful World 7 Volare 8 Japanese In New York DOWNLOAD From : Rapidgator, Uploaded, …. J download mp3, download scandal mp3, scandal download, scandal download mp3 Kiss from the darkness is the ninth. Scandal - Masterpiece. Scandal (1) Scorpions (48) Casper And The Cookies' "Modern Silence" Is A Modern Masterpiece 11. Downton Abbey is a British period drama television series created by Julian Fellowes and co-produced by Carnival Films and Masterpiece. Promenoch les spécialistes des éléments publicitaires basé à Paris vous propose un large choix de cadeaux d’affaire et d’objets publicitaires : cadeaux entreprises , coffret champagne personnalisé , panier gourmand personnalisable , chocolat publicitaires , coffrets cadeaux beauté publicitaires , parure stylos personnalisable. Download SCANDAL - Masterpiece. 59 US), "Hands Tied" (1984 - No. SCANDAL - 「マスターピース」 / Masterpiece (2019. The Prophecy by Ninja Sex Party, released 16 October 2020 1. Sometimes I’d rehearse a sequence with no idea of the context or any sense of how it would eventually appear. Tracker Wide Statistics Seeds/Peers: 2,302/791 (1:2. com (myoo-zik-uh-sawr-uhs-dot-kom): 1) A weekly website born of a desire to preserve the musical fossil record in the midst of Technology’s trot…2) Digging into the art of the music mix…. Truth Bomb 9. Neuropunk Boostergang by EXPANDER, released 21 August 2020 1. Greek Theater. [Album] Niagara Triangle – Niagara Triangle Vol. This was right after his masterpiece album All Things Must Pass. 27] (SCANDAL – マスターピース / まばたき) FLAC / Lossless / CD / Limited Edition A – 2019 62. Find out at which radio station you can hear SCANDAL (JP) - Masterpiece. 00 B/s: 741: 368. zip #536: 3621x [ 55M] [Nipponsei] BLEACH Original Soundtrack I. 65 US), "Love's Got a Line on You" (1983 - No. Cryptosteal 6. ku abah emak abang kumis abang sayang house music abang sayang abatasa (koplo) ach yang bener acong jadi amir acuh tak acuh house music acuh tak acuh acuh tak acuh ada apa dengan cinta ada apa ini ada kamu ada suara ada cinta adakah kau setia aduhai aduhai aduhdu sayang ahh. com is the best free search engine for flac files. Cotton Magick by Black Taffy, released 01 June 2012 1. Helheim is building further on their dark and heavy atmospheres, and raunijaR is an epic masterpiece! Includes unlimited streaming of raunijaR via the free Bandcamp app, plus high-quality download in MP3, FLAC and more. 47 MB: 0: 0: 0. Shunkan Sentimental (1:00)02. Flavio Crispo, Act I: Sinfonia. Them Thats Got 2. 59 US), "Hands Tied" (1984 - No. SCANDAL - Masterpiece. The Glitter 6. SCANDAL – HONEY (8th Album) Anime OST List A to Z (MP3&FLAC) Stay Updated with the Social. Masterpiece 03. テイクミーアウト (Take Me Out) 3. Mata-Hari - Mata-Hari 08. Disc 1 01 Ophelia 02 Slippin' And Slidin' 03 Goin' Back To Memphis 04 Ain't No More Cane 05 Lookout Cleveland 06 Jemina Surrender > 07 Yazoo Street Scandal 08. Scandal Masterpiece Flac Photoshop Elements 2019 Torrent Miel Lapin Chel Brother 7820n Scanner Driver Armaholic Arma 3 Acer Es1-512 Series Drivers Windows 7 High School Dxd 3ds Rom Driver Para Huawei Y221-u03 Bmc Medical Education San Francisco Prop J 2008. Loyalty Illusion (R. I hope the writer will make another masterpiece. World Destruction 2. SCANDAL - Masterpiece SCANDAL - Masterpiece (マスターピース) (Instr. Everything about Blu-ray Disc. [201228] 蜂屋ななし feat. SCANDAL、プライベートレーベル"her"から第一弾となる. VICL-65310; CD). Peccato perché possiedo anche i Flac e il suono li è meraviglioso (sono arrivati anche i file su Amazon Music remaster del 2001, ma che comunque è anni luce da quella su vinile che è una remaster del 2009). Sweet Love 7. Aspiring writers get up early in the morning to get a few pages of their putative masterpiece done before the kids wake for school. 歌愛ユキ - アンチサイクロン Kanaria [201017] Kanaria - ヒトリユラリ(MARETU REMIX) [ototoy/FLAC] (VM45) Kanaria - KING. 01 Masterpiece. Yosier - Mi Tormento 09. Flavio Crispo, Act I: Sinfonia. 27] (SCANDAL – マスターピース / まばたき) FLAC / Lossless / CD / Limited Edition A – 2019 62. Beep Me 911 3. 72MB 1975/1975 - Donna Summer - Love To Love You Baby {Casablanca NBLP 7041} {16-44}/02. Madonna - Masterpiece. jeffandnorm2017-12-27. Roy C Discography ROY C - THE DISCOGRAPHY (Compiled by Heikki Suosalo. The score is a masterpiece. "The Warner Bros. (Studio FLAC) HOWLIN' WOLF CHESS RECORDS OUTTAKES,DEMOS & ALTERNATE TAKES 1948 - 1968 RECORDED IN CHICAGO AND MEMPHIS PLUS CHICAGO 1972 L. Other hits were " Goodbye to You " (1982 - No. (добавить в избранное) 04:19. Masterpiece. Wretched Warez 2. Northern Pike. Scandal Masterpiece REACTION | BethRobinson94 Подробнее. Scandal First Live: Best Scandal 2009: 5 5 11,107 Scandal Anime — — — 2011 Everybody Say Yeah!: Temptation Box Tour 2010: Zepp Tokyo: 5 8 11,175 Video Action: 2 5 14,067 2012 Japan Title Match Live 2012: Scandal vs Budokan: 2 8 15,710 2013 Scandal Osaka-Jo Hall 2013: Wonderful Tonight: 4 10 15,130 2015 Scandal Arena Live 2014: Festival: 2. Satan In The Wait 4. According to the liner notes, Robertson remembers cutting the track during the Big Pink sessions, but both he and John Simon deny that it was ever. (FM broadcast FLAC) Bread and Roses Festival. 5 - The Ultimate Disco Funk Collection (2007)\ Masterpiece Vol. Tracklist: CD1 01. Spells On U (feat. Masterpiece Volume 3 - The Ultimate Disco Funk Collection [2006] [FLAC]\01 - Nuance (Feat. Greek Theater. Kiss Me Thru The Phone 5. Yosier - Mi Tormento 09. The Lords Song 6. Reggaeton in 10 Albums. Scandal (1) Scorpions (48) Casper And The Cookies' "Modern Silence" Is A Modern Masterpiece 11. Scandal Masterpiece Flac Photoshop Elements 2019 Torrent Miel Lapin Chel Brother 7820n Scanner Driver Armaholic Arma 3 Acer Es1-512 Series Drivers Windows 7 High School Dxd 3ds Rom Driver Para Huawei Y221-u03 Bmc Medical Education San Francisco Prop J 2008. Similar to how 95% of folk don't care about mp3 vs flac as an audio source. jpg, size: 1,31 MB. City Song 2. HARUKAZE 2. According to the liner notes, Robertson remembers cutting the track during the Big Pink sessions, but both he and John Simon deny that it was ever. " This work, kicking off to a new start along with the establishing of new label "her," will be the band's first double A-side single. hello ! i know i'm quite late, but i just registered on the website to tell you i've spent all this day to make a tab of Mami's part in Masterpiece ! i basically took the instrumental and isolated the right ear to make this tab as best as i could, by ear. a aa aaa aaaa aaacn aaah aaai aaas aab aabb aac aacc aace aachen aacom aacs aacsb aad aadvantage aae aaf aafp aag aah aai aaj aal aalborg aalib aaliyah aall aalto aam. Nasty Woman 6. Free Cinema group. No other release summed up 2016 for us as much as Sam Kidel’s Disruptive Muzak. Full Movies via Streaming Link for free. David Lyme - Let's Go To Lloret 07. Saishuheiki Kimi 05. FLAC无损下载 (Masterpiece / Mabataki) SCANDAL. If you're having trouble in downloading "[Single] SCANDAL - Masterpiece / Mabataki [MP3/320K/ZIP][2019. Saishuheiki. SCANDAL will release a double A-side single "Masterpiece / Mabataki" on March 27 as the first work to be released from their private label 'her. Google Photos is the home for all your photos and videos, automatically organized and easy to share. 6 % Extraction speed. You can help show your support for this blog by making a donation using PayPal. Previous article Next article. Released 12 February 2020 on Colourful (catalog no. Digital Mind - Countdown 06. Buy, preview and download over 30 million tracks in our store. For production staff caught up in the day to day endeavour, there was no sense of an overview. WEB FLAC 24bit/96kHz SCANDAL - Masterpiece ⁄ Mabataki [24bit ⁄ 96kHz]. wav Pre-gap length 0:00:02. Them Thats Got 2. Aspiring writers get up early in the morning to get a few pages of their putative masterpiece done before the kids wake for school. Loyalty Illusion (R. SCANDAL Masterpiece / Mabataki download. I hope the writer will make another masterpiece. VA Pure Electronic 80s (4CD) (2014) [FLAC] torrent download, InfoHash 105E3A9EEAA72A886235C04CB0BCFFD6F7630C27. Tonight 02. Tracklist: CD1 01. 1 of) 'a new, revised and enlarged edition with illustrations' and bibliography, published 1898, a truly excellent critical edition by E. Thank you for your help. The Lords Song 6. Suivez l'évolution de l'épidémie de CoronaVirus / Covid19 dans le monde. (FM broadcast FLAC) Bread and Roses Festival. VICL-65310; CD). The band scored a hit in the United States with the song " The Warrior ", which peaked at No. [201228] 蜂屋ななし feat. 24 1 영화 | 소울 Soul. Day of Triumph. Ti' Human Desire. március 2-án jelent meg az Epic kiadásában. zip #537: 3162x [ 62M] [Nipponsei. His father wanted him to become a lawyer, but after George showed musical aptitude (he practised in secret), he was allowed to study music formally. The all-star collaboration between a producer, a saxophonist, and a symphony is a celestial event. Продолжительность: 04:19. [Single] SCANDAL – Masterpiece / Mabataki [2019. Masterpiece 03. Acknowledgements to Messrs. hello ! i know i'm quite late, but i just registered on the website to tell you i've spent all this day to make a tab of Mami's part in Masterpiece ! i basically took the instrumental and isolated the right ear to make this tab as best as i could, by ear. Donna Summer - Love To Love You Baby. Mirage - Talking Eyes 05. With those expanded CDs fading into the history books, it's best for the non-LP cuts. 21, 201701. View all articles on this page. a aa aaa aaaa aaacn aaah aaai aaas aab aabb aac aacc aace aachen aacom aacs aacsb aad aadvantage aae aaf aafp aag aah aai aaj aal aalborg aalib aaliyah aall aalto aam. Mar 27: Actor Kate Reid passed away 28 years ago today (in 1993) at the age of 63. SCANDAL - Masterpiece (マスターピース) - mp3. FILE "Celebrity Sex Scandal - Derivative. Scandal - Masterpiece. The Coldest 8. NEWS LIBRERY ee Siete Se) Rm eee psec} CCE! ROU a he ts AT reg Deeprun esis aa proficiency P Gold Jacky Newbrook Judith Wilson Jacky J __ Contents Topic Reading Writing Use of English 1 Nese anddearst Pare 2 (shore ximcts + Improving your writing Pare $ (open close) p. Neuropunk Boostergang by EXPANDER, released 21 August 2020 1. Music Video Director:DaishinSZK. (FM broadcast FLAC) Bread and Roses Festival. 2 - Taiyou Scandalous. SCANDAL – SCANDAL WORLD TOUR 2020 “Kiss from the darkness” Livestream – 2020. This file is unconfirmed. "The Warner Bros. [Nipponsei] BLEACH OP15 Single - HARUKAZE [SCANDAL]. 1 Scandal - Masterpiece: 29. But it’s Pharoah Sanders’ playing that holds it all together, a clear late-career masterpiece. Quality: FLAC 16 bit / 44. Mediaplus Le Quotidien. SCANDAL released 13 albums, 34 singles, and 199 videos. (Studio FLAC) HOWLIN' WOLF CHESS RECORDS OUTTAKES,DEMOS & ALTERNATE TAKES 1948 - 1968 RECORDED IN CHICAGO AND MEMPHIS PLUS CHICAGO 1972 L. 65 US), "Love's Got a Line on You" (1983 - No. Truth Bomb 9. Other hits were " Goodbye to You " (1982 - No. Duration: 4:19 File type: mp3. The Gold Shoes 2. SCANDAL、プライベートレーベル"her"から第一弾となる. flac" WAVE TRACK 01 AUDIO TITLE "The Prototype" PERFORMER "Celebrity Sex Scandal" FLAGS DCP INDEX 01 00:00:00 TRACK 02 AUDIO TITLE "Ballad Of Britney" PERFORMER "Celebrity Sex Scandal" FLAGS DCP INDEX 01 03:55:72 TRACK 03 AUDIO TITLE "Billy's Little Baby" PERFORMER "Celebrity Sex Scandal" FLAGS DCP INDEX. Masterpiece. SCANDAL Masterpiece / Mabataki download. 똑똑한 ai 번역기 파파고, 언어 장벽 없이 대화하는 세상을 꿈꿉니다. [Single] SCANDAL - Masterpiece / Mabataki Download RAR/MP3 320kbps/FLAC lossless/AAC 256kbps/ALAC lossless/ZIP. ) Download Jpop Song Single & Album Flac Mp3 AAC Free. One es una caja recopilatoria del músico estadounidense Bob Dylan, publicada por la compañía discográfica Columbia Records en noviembre de 2013. Masterpiece Volume 3 - The Ultimate Disco Funk Collection [2006] [FLAC]\01 - Nuance (Feat. A kiadvánnyal az együttes új irányt vett, a korábbiakkal ellentétben a lemezen szereplő legtöbb dalt teljesen ők szerezték, melyre azért került sor, mivel úgy érezték, hogy bizonyos korábbi, mások által szerzett számaik nem az ő. [Album] SSSS. Tracklist: CD1 01. v4 flower 单曲×4 [ototoy/FLAC、MP3] Ayase (VM43) Ayase feat. Quality: FLAC 16 bit / 44. Online shopping from a great selection at Movies & TV Store. Other hits were " Goodbye to You " (1982 - No. the easiest way to backup and share your files with everyone. 小圈子 by 輕描淡寫, released 04 February 2020 1. Masterpiece Vol. 02-scandal-masterpiece. 91) Downloads: 156,657,260 Transfer: 312. Scandal masterpiece flac. Suivez l'évolution de l'épidémie de CoronaVirus / Covid19 dans le monde. SCANDAL Masterpiece / Mabataki download. [Nipponsei] BLEACH OP15 Single - HARUKAZE [SCANDAL]. The Beatles, aka the White Album was remixed. 1 with Reaper 5. Artist: SCANDAL Title: Kiss from the darkness Year Of Release: 2020 Label: her Genre: Pop Rock Quality: 320 / FLAC (tracks) / FLAC (tracks) 24bit-48kHz Total Time: 46:06 Total Size: 106 / 346 / 766 Mb WebSite: Album Preview. It should collectively tell a story, capturing the film’s spirit without waving its hands around in the air or feeling like an audiobook adaptation. 73 MB: 1 0: 16 Июл 20: Bob Dylan & Joan Baez - Voices Of A Generation [2CD] (2013) MP3 : 324. A4 Sunday, 06. Nasty Woman 6. View all articles on this page. マスターピース/まばたき SCANDAL/a> 番号:VICL-37467. Following a celebrated debut for Entr’acte in 2015. SCANDAL Masterpiece. flac, size: 35,13. (M-00005)(070905)Rie fu - 5000 マイル. Scandal - Shoujo S (Блич 10) Opening. Others state that Handel had wooed away the Dresden singers during a journey from Italy to London. 00 B/s: 741: 368. This is an update to my previous discography, which wasn't complete. Brian And The Eden - Wishing You All The Best For. There is quite a big difference, and I’m always amazed that Quora Authorities don’t know the difference. Tolerance - Machinery 03. com (myoo-zik-uh-sawr-uhs-dot-kom): 1) A weekly website born of a desire to preserve the musical fossil record in the midst of Technology’s trot…2) Digging into the art of the music mix…. 1,190 Followers, 292 Following, 11 Posts - See Instagram photos and videos from abdou now online (@abdoualittlebit). SCANDAL - 「マスターピース」 / Masterpiece (2019. Previous article Next article. Neuropunk Boostergang by EXPANDER, released 21 August 2020 1. flac" WAVE TRACK 01 AUDIO TITLE "The Prototype" PERFORMER "Celebrity Sex Scandal" FLAGS DCP INDEX 01 00:00:00 TRACK 02 AUDIO TITLE "Ballad Of Britney" PERFORMER "Celebrity Sex Scandal" FLAGS DCP INDEX 01 03:55:72 TRACK 03 AUDIO TITLE "Billy's Little Baby" PERFORMER "Celebrity Sex Scandal" FLAGS DCP INDEX. a aa aaa aaaa aaacn aaah aaai aaas aab aabb aac aacc aace aachen aacom aacs aacsb aad aadvantage aae aaf aafp aag aah aai aaj aal aalborg aalib aaliyah aall aalto aam. ' "Masterpiece" is described as a positive rock tune about new beginnings and a hope for the future.